Скачать через торрент Великий уравнитель 2 The Equalizer 2 Фильм бесплатно в хорошем качестве torrent

Скачивайте на UnionPeer.org фильмы через торрент без регистрации. Новинки кино в хорошем качестве через торрент. На UnionPeer.org можно скачать через торрент фильмы 2014 и 2015 годов. Самые новые фильмы.

Скачать торрент Великий уравнитель 2 The Equalizer 2 бесплатно через .torrent фильм мультфильм сериал

Статистика раздачи
Размер:  2.77 GB   |    Зарегистрирован:  13 дней   |    .torrent скачан:  436 раз   |   
Раздают:  1  
   
загрузка...
 
Автор Сообщение

Galfimbul

avatar Galfimbul


Великий уравнитель 2 /The Equalizer 2

Год выхода: 2018
Выпущено: США / Columbia Pictures
Жанр: боевик, триллер, криминал
Продолжительность: 02:01:12
Перевод: Профессиональный (полное дублирование)
Субтитры: Русские (форс., полные), Украинские (полные), Английские (форс., полные)
Оригинальная аудиодорожка: Английская
Навигация по главам: Есть (16 глав)

Режиссер:
Антуан Фукуа / Antoine Fuqua

В ролях:
Дензел Вашингтон, Педро Паскаль, Билл Пуллман, Мелисса Лео, Джонатан Скарф, Сакина Джэффри, Кэролайн Дэй, Орсон Бин, Хайди Гарроу, Эштон Сандерс

О фильме:
Продолжение истории Роберта Маккола, бывшего агента ЦРУ, который самостоятельно вершит правосудие.



| | |

Файл
Качество: WEB-DLRip-AVC [The.Equalizer.2.2018.1080p.WEB-DL.DD5.1.H264-FGT]
Формат: MKV
Видео кодек: x264
Аудио кодек: AC3
Видео: 1136x472 (2,40:1), 23.976 fps, x264 ~2438 kbps avg, 0.190 bit/pixel
Аудио #1: 48 kHz, AC3 Dolby Digital, 3/2 (L,C,R,l,r) + LFE ch, ~384.00 kbps avg (RUS)
Аудио #2: 48 kHz, AC3 Dolby Digital, 3/2 (L,C,R,l,r) + LFE ch, ~384.00 kbps avg (ENG)
Формат субтитров: Softsub (.srt*)
Полное имя : D:Velikiy_uravnitel`_2_2018_WEB-DLRip-AVC_by_Dalemake.mkv
Формат : Matroska
Версия формата : Version 4 / Version 2
Размер файла : 2,77 Гбайт
Продолжительность : 2 ч. 1 м.
Общий поток : 3271 Кбит/сек
Название фильма : [The_Equalizer_2_2018_All Films_by Dalemake]
Дата кодирования : UTC 2018-10-31 11:36:00
Программа кодирования : mkvmerge v7.8.0 ('River Man') 32bit built on Apr 3 2015 12:11:22
Библиотека кодирования : libebml v1.3.1 + libmatroska v1.4.2
DURATION : 01:53:54.751000000
NUMBER_OF_FRAMES : 1057
NUMBER_OF_BYTES : 49807
_STATISTICS_WRITING_APP : mkvmerge v7.8.0 ('River Man') 32bit built on Apr 3 2015 12:11:22
_STATISTICS_WRITING_DATE_UTC : 2018-10-31 11:36:00
_STATISTICS_TAGS : BPS DURATION NUMBER_OF_FRAMES NUMBER_OF_BYTES

Видео
Идентификатор : 1
Формат : AVC
Формат/Информация : Advanced Video Codec
Профиль формата : High@L4.1
Параметр CABAC формата : Да
Параметр ReFrames формата : 13 кадров
Идентификатор кодека : V_MPEG4/ISO/AVC
Продолжительность : 2 ч. 1 м.
Битрейт : 2438 Кбит/сек
Ширина : 1136 пикселей
Высота : 472 пикселя
Соотношение сторон : 2,40:1
Частота кадров : 23,976 кадра/сек
Цветовое пространство : YUV
Субдискретизация насыщенности : 4:2:0
Битовая глубина : 8 бит
Тип развёртки : Прогрессивная
Бит/(Пиксели*Кадры) : 0.190
Размер потока : 2,06 Гбайт (75%)
Заголовок : [The_Equalizer_2_2018_All Films_by Dalemake]
Библиотека кодирования : x264 core 157 r2935 545de2f
Настройки программы : cabac=1 / ref=13 / deblock=1:-3:-2 / analyse=0x3:0x133 / me=umh / subme=10 / psy=1 / psy_rd=1.00:0.00 / mixed_ref=1 / me_range=48 / chroma_me=1 / trellis=2 / 8x8dct=1 / cqm=0 / deadzone=21,11 / fast_pskip=1 / chroma_qp_offset=-4 / threads=6 / lookahead_threads=1 / sliced_threads=0 / nr=0 / decimate=0 / interlaced=0 / bluray_compat=0 / constrained_intra=0 / bframes=11 / b_pyramid=2 / b_adapt=2 / b_bias=0 / direct=1 / weightb=1 / open_gop=0 / weightp=2 / keyint=240 / keyint_min=23 / scenecut=40 / intra_refresh=0 / rc_lookahead=60 / rc=crf / mbtree=0 / crf=17.9 / qcomp=0.60 / qpmin=0 / qpmax=69 / qpstep=4 / vbv_maxrate=50000 / vbv_bufsize=62500 / crf_max=0.0 / nal_hrd=none / filler=0 / ip_ratio=1.40 / pb_ratio=1.35 / aq=1:1.00
Default : Да
Forced : Нет

Аудио #1
Идентификатор : 2
Формат : AC-3
Формат/Информация : Audio Coding 3
Расширение режима : CM (complete main)
Параметр Endianness формата : Big
Идентификатор кодека : A_AC3
Продолжительность : 2 ч. 1 м.
Вид битрейта : Постоянный
Битрейт : 384 Кбит/сек
Каналы : 6 каналов
Расположение каналов : Front: L C R, Side: L R, LFE
Частота : 48,0 КГц
Битовая глубина : 16 бит
Метод сжатия : С потерями
Размер потока : 333 Мбайт (12%)
Заголовок : Dub - iTunes Russia
Язык : Russian
Default : Да
Forced : Нет

Аудио #2
Идентификатор : 3
Формат : AC-3
Формат/Информация : Audio Coding 3
Расширение режима : CM (complete main)
Параметр Endianness формата : Big
Идентификатор кодека : A_AC3
Продолжительность : 2 ч. 1 м.
Вид битрейта : Постоянный
Битрейт : 384 Кбит/сек
Каналы : 6 каналов
Расположение каналов : Front: L C R, Side: L R, LFE
Частота : 48,0 КГц
Битовая глубина : 16 бит
Метод сжатия : С потерями
Размер потока : 333 Мбайт (12%)
Заголовок : Original
Язык : English
Default : Нет
Forced : Нет

Текст #1
Идентификатор : 4
Формат : UTF-8
Идентификатор кодека : S_TEXT/UTF8
Идентификатор кодека/Информация : UTF-8 Plain Text
Заголовок : Forced
Язык : Russian
Default : Да
Forced : Да

Текст #2
Идентификатор : 5
Формат : UTF-8
Идентификатор кодека : S_TEXT/UTF8
Идентификатор кодека/Информация : UTF-8 Plain Text
Заголовок : Full
Язык : Russian
Default : Нет
Forced : Нет

Текст #3
Идентификатор : 6
Формат : UTF-8
Идентификатор кодека : S_TEXT/UTF8
Идентификатор кодека/Информация : UTF-8 Plain Text
Заголовок : Full
Язык : Ukrainian
Default : Нет
Forced : Нет

Текст #4
Идентификатор : 7
Формат : UTF-8
Идентификатор кодека : S_TEXT/UTF8
Идентификатор кодека/Информация : UTF-8 Plain Text
Заголовок : Forced
Язык : English
Default : Нет
Forced : Нет

Текст #5
Идентификатор : 8
Формат : UTF-8
Идентификатор кодека : S_TEXT/UTF8
Идентификатор кодека/Информация : UTF-8 Plain Text
Заголовок : Full
Язык : English
Default : Нет
Forced : Нет

Меню
00:00:00.000 : en:1
00:06:49.034 : en:2
00:13:21.634 : en:3
00:16:42.459 : en:4
00:27:09.919 : en:5
00:34:04.458 : en:6
00:41:04.543 : en:7
00:47:07.613 : en:8
00:54:16.333 : en:9
01:02:16.813 : en:10
01:11:17.727 : en:11
01:18:38.125 : en:12
01:25:18.942 : en:13
01:31:39.238 : en:14
01:40:09.330 : en:15
01:52:13.720 : en:16
Источник http://BlaTor.org

Трекер:  [ 31-Окт-2018 15:30 ]

  

Скачать .torrent

Размер .torrent файла 14 KB


Размер: 2.77 GB
Хэш (hash) релиза: 5b430a97772a75783aec2ef5ad57e6a5206af7e3
Подписка на обновления:

Торренты, похожие на Великий уравнитель 2 The Equalizer 2 скачать торрент

Форум Название Автор Размер S L Добавлен
Зарубежные фильмы 2016-2018 (Новинки зарубежного кино) ·%· Великий уравнитель 2 / The Equalizer 2 (2018) BDRip | iTunes Galfimbul 782515094746 MB 0 0 1542117122

16:52

13-Ноя-18

Зарубежные фильмы 2016-2018 (Новинки зарубежного кино) ·%· Великий уравнитель 2 / The Equalizer 2 (2018) BDRip 1080p от qqss44 & MegaPeer | iTunes Galfimbul 80886381327.53 GB 0 0 1542117072

16:51

13-Ноя-18

Зарубежные фильмы 2016-2018 (Новинки зарубежного кино) ·%· Великий уравнитель 2 / The Equalizer 2 (2018) BDRip 720p от HELLYWOOD | iTunes Galfimbul 51886316364.83 GB 0 0 1542116488

16:41

13-Ноя-18

Зарубежные фильмы 2016-2018 (Новинки зарубежного кино) ·%· Великий уравнитель 2 / The Equalizer 2 (2018) BDRip-AVC от HELLYWOOD | iTunes Galfimbul 22854059382.13 GB 0 0 1542104485

13:21

13-Ноя-18

Зарубежные фильмы 2016-2018 (Новинки зарубежного кино) ·%· Великий уравнитель 2 / The Equalizer 2 (2018) BDRemux 1080p от селезень | iTunes Galfimbul 2346521259821.85 GB 0 0 1542076854

05:40

13-Ноя-18

Зарубежные фильмы 2016-2018 (Новинки зарубежного кино) ·%· Великий уравнитель 2 / The Equalizer 2 (2018) HDRip от Kaztorrents | КПК | iTunes Galfimbul 482419386460 MB 0 0 1542067831

03:10

13-Ноя-18

Зарубежные фильмы 2016-2018 (Новинки зарубежного кино) ·%· Великий уравнитель 2 / The Equalizer 2 (2018) BDRip от MegaPeer | iTunes Galfimbul 22867956442.13 GB 0 0 1542043827

20:30

12-Ноя-18

Зарубежные фильмы 2016-2018 (Новинки зарубежного кино) ·%· Великий уравнитель 2 / The Equalizer 2 (2018) WEB-DLRip от Scarabey | iTunes Galfimbul 782731264746 MB 0 0 1541004806

19:53

31-Окт-18

Зарубежные фильмы 2016-2018 (Новинки зарубежного кино) ·%· Великий уравнитель 2 / The Equalizer 2 (2018) WEB-DLRip-AVC | iTunes Galfimbul 781834816746 MB 0 0 1540977020

12:10

31-Окт-18

Зарубежные фильмы 2016-2018 (Новинки зарубежного кино) ·%· Великий уравнитель 2 / The Equalizer 2 (2018) WEB-DLRip от Generalfilm | КПК | iTunes Galfimbul 483337201461 MB 0 0 1540975930

11:52

31-Окт-18

Зарубежные фильмы 2016-2018 (Новинки зарубежного кино) ·%· Великий уравнитель 2 / The Equalizer 2 (2018) WEB-DLRip-AVC от ExKinoRay | iTunes Galfimbul 24058439392.24 GB 0 0 1540957807

06:50

31-Окт-18

Зарубежные фильмы 2016-2018 (Новинки зарубежного кино) ·%· Великий уравнитель 2 / The Equalizer 2 (2018) WEB-DLRip от Dalemake | iTunes Galfimbul 23390437692.18 GB 0 0 1540936251

00:50

31-Окт-18

Зарубежные фильмы 2016-2018 (Новинки зарубежного кино) ·%· Великий уравнитель 2 / The Equalizer 2 (2018) WEB-DL 720p от селезень | iTunes Galfimbul 43541609144.06 GB 0 0 1540926279

22:04

30-Окт-18

Зарубежные фильмы 2016-2018 (Новинки зарубежного кино) ·%· Великий уравнитель 2 / The Equalizer 2 (2018) WEB-DL 1080p от TeamHD | iTunes Galfimbul 48056749744.48 GB 0 0 1540926268

22:04

30-Окт-18

Зарубежные фильмы 2016-2018 (Новинки зарубежного кино) ·%· Великий уравнитель 2 / The Equalizer 2 (2018) TS от Dalemake | L Galfimbul 15646085121.46 GB 0 0 1536229865

13:31

6-Сен-18

Еще никто не оставлял запись к записи скачать торрент Великий уравнитель 2 The Equalizer 2 . Будь первым!

!Обратная связь