Скачать через торрент Всё началось в Харбине Серии: 1-8 из 8 Фильм бесплатно в хорошем качестве torrent

Скачивайте на UnionPeer.org фильмы через торрент без регистрации. Новинки кино в хорошем качестве через торрент. На UnionPeer.org можно скачать через торрент фильмы 2014 и 2015 годов. Самые новые фильмы.

Скачать торрент Всё началось в Харбине Серии: 1-8 из 8 бесплатно через .torrent фильм мультфильм сериал

Статистика раздачи
Размер:  4.94 GB   |    Зарегистрирован:  2 месяца 30 дней   |    .torrent скачан:  284 раза   |   
Раздают:  1  
   
загрузка...
 
Автор Сообщение

aleksan55

avatar aleksan55


Всё началось в Харбине

Год выпуска: 2013
Страна: Россия | Кинокомпания "Кобура"
Жанр: драма, история,экранизация
Продолжительность: 00:44:00
Субтитры: нет
Режиссёр: Леонид Зисов

В ролях: Данила Козловский, Анна Чиповская, Владимир Епифанцев, Дина Корзун, Игорь Иванов, Филипп Ершов, Ирина Розанова, Игорь Скляр, Никита Ефремов, Эрнст Романов, Анна Вартанян, Андрей Шарков, Александр Вонтов, Владимир Богданов, Валерий Дегтярь, Наталья Ткаченко, Сергей Занин, Александр Удалов, Александр Петров (V), Михаил Елисеев, Геша Меньшиков, Дмитрий Лебедев, Валерий Ошомков, Константин Дунаевский, Юлия Денисова, Игорь Головин, Анна Пескова, Георгий Просаловский, Алексей Байдаков, Ольга Калмыкова, Игорь Николаев, Сергей Мучеников
Описание:
История начинается в многонацио­нальном Харбине в 1929 году, где живет семья служащего Китай­ско-Восточной железной дороги Николая Эйбоженко и его жены Матрены, вырастивших прекрасных сыновей: мужественного Бориса, мечтающего стать машинистом паровоза, и музыкально одаренного Вовку. Это был один из самых драматичных моментов истории КВЖД. Здесь, как в кипящем котле, смешались интересы русских - белых и красных, китайцев - имперских и революционеров и алчные интере­сы рвущейся в Китай японской военщины. Харбин стал местом, где мир уходящий и мир новый сошлись в противостоянии, как будто сшитые полотном железной дороги.

Качество: SATRip-AVC
Формат: MKV
Видео кодек: H.264
Аудио кодек: AC3
Видео: MPEG4 Video (H264), 720x404, 25fps,1800 Kbps,bit/pixel 0.250
Аудио : AC3 48000Hz, stereo, 192 kbps,2 ch
Общее
Уникальный идентификатор : 186415162720933660521180460523709573083 (0x8C3E41202CE23C099C45341047B4A7DB)
Полное имя : E:\Всё началось в Харбине\01 серия_Всё началось в Харбине_rip by_Aleksan55.mkv
Формат : Matroska
Версия формата : Version 2
Размер файла : 629 Мбайт
Продолжительность : 44 м. 5 с.
Общий поток : 1994 Кбит/сек
Дата кодирования : UTC 2018-08-07 07:01:34
Программа кодирования : mkvmerge v7.8.0 ('River Man') 32bit built on Apr 3 2015 12:11:22
Библиотека кодирования : libebml v1.3.1 + libmatroska v1.4.2

Видео
Идентификатор : 1
Формат : AVC
Формат/Информация : Advanced Video Codec
Профиль формата : High@L4.1
Параметр CABAC формата : Да
Параметр ReFrames формата : 14 кадров
Идентификатор кодека : V_MPEG4/ISO/AVC
Продолжительность : 44 м. 5 с.
Битрейт : 1800 Кбит/сек
Ширина : 720 пикселей
Высота : 400 пикселей
Соотношение сторон : 16:9
Режим частоты кадров : Постоянный
Частота кадров : 25,000 кадров/сек
Цветовое пространство : YUV
Субдискретизация насыщенности : 4:2:0
Битовая глубина : 8 бит
Тип развёртки : Прогрессивная
Бит/(Пиксели*Кадры) : 0.250
Размер потока : 556 Мбайт (88%)
Библиотека кодирования : x264 core 146 r2538 121396c
Настройки программы : cabac=1 / ref=14 / deblock=1:-1:-1 / analyse=0x3:0x133 / me=umh / subme=9 / psy=1 / psy_rd=1.00:0.15 / mixed_ref=0 / me_range=32 / chroma_me=1 / trellis=2 / 8x8dct=1 / cqm=0 / deadzone=21,11 / fast_pskip=1 / chroma_qp_offset=-3 / threads=12 / lookahead_threads=1 / sliced_threads=0 / nr=0 / decimate=0 / interlaced=0 / bluray_compat=0 / constrained_intra=0 / bframes=14 / b_pyramid=2 / b_adapt=1 / b_bias=0 / direct=3 / weightb=1 / open_gop=0 / weightp=2 / keyint=250 / keyint_min=25 / scenecut=40 / intra_refresh=0 / rc_lookahead=40 / rc=2pass / mbtree=1 / bitrate=1800 / ratetol=1.0 / qcomp=0.60 / qpmin=0 / qpmax=39 / qpstep=4 / cplxblur=20.0 / qblur=0.5 / ip_ratio=1.40 / aq=1:1.50
Default : Да
Forced : Нет
Цветовой диапазон : Limited
Основные цвета : BT.601 PAL
Характеристики трансфера : BT.470 System B, BT.470 System G
Коэффициенты матрицы : BT.601

Аудио
Идентификатор : 2
Формат : AC-3
Формат/Информация : Audio Coding 3
Расширение режима : CM (complete main)
Параметр Endianness формата : Big
Идентификатор кодека : A_AC3
Продолжительность : 44 м. 5 с.
Вид битрейта : Постоянный
Битрейт : 192 Кбит/сек
Каналы : 2 канала
Расположение каналов : Front: L R
Частота : 48,0 КГц
Частота кадров : 31,250 кадров/сек (1536 spf)
Битовая глубина : 16 бит
Метод сжатия : С потерями
Размер потока : 60,5 Мбайт (10%)
Default : Да
Forced : Нет


Трекер:  [ 17-Авг-2018 10:39 ]

  

Скачать .torrent

Размер .torrent файла 26 KB


Размер: 4.94 GB
Хэш (hash) релиза: 4d89031c2edd788f50be5862d13d117aa3b24529
Подписка на обновления:

Торренты, похожие на Всё началось в Харбине Серии: 1-8 из 8 скачать торрент

Форум Название Автор Размер S L Добавлен
Российские сериалы ·· Всё началось в Харбине /Серии: 1-8 из 8 (Леонид Зисов) [2013, Мелодрама, SATRip-AVC] Galfimbul 40448729413.77 GB 0 0 1361696782

12:06

24-Фев-13

Российские сериалы ·· Всё началось в Харбине / Серии: 1-8 из 8 (Леонид Зисов) [2013, Мелодрама, SATRip] Galfimbul 47933788164.46 GB 0 0 1361696596

12:03

24-Фев-13

Еще никто не оставлял запись к записи скачать торрент Всё началось в Харбине Серии: 1-8 из 8 . Будь первым!

!Обратная связь