Скачать через торрент Шокирующая темнота Терминатор 2 Фильм бесплатно в хорошем качестве torrent

Скачивайте на UnionPeer.org фильмы через торрент без регистрации. Новинки кино в хорошем качестве через торрент. На UnionPeer.org можно скачать через торрент фильмы 2014 и 2015 годов. Самые новые фильмы.

Скачать торрент Шокирующая темнота Терминатор 2 бесплатно через .torrent фильм мультфильм сериал

Статистика раздачи
Размер:  4.82 GB   |    Зарегистрирован:  3 месяца 15 дней   |    .torrent скачан:  106 раз   |   
Раздают:  1  
   
загрузка...
 
Автор Сообщение

Galfimbul

avatar Galfimbul


Шокирующая темнота (Терминатор 2) / Shocking Dark (Terminator II)

Страна: Италия
Студия: Flora Film S.r.l.
Жанр: Фантастика, боевик, ужасы
Год выпуска: 1989
Продолжительность: 01:29:40

Перевод: Одноголосый закадровый - Котов
Субтитры: английские
Оригинальная аудиодорожка: английский

Режиссер: Бруно Маттеи / Bruno Mattei

В ролях: Кристофер Аренс, Хевн Тайлер, Джеретта Джеретта, Фаусто Ломбарди, Марк Стейнборн, Доминика Колсон, Клайв Ричи, Пол Норман Аллен, Кортлэнд Рейли, Ричард Росс

Описание: Будущее. Венеция подвергается химическому заражению. Специализированный отряд военных отправляется в подземелья и тоннели города с целью отыскания всех возможных живых и спасения их от химической угрозы и возникших в результате неё мутировавших монстров.



Сэмпл: http://sendfile.su/1433125

Релиз: GoldDust

Тип релиза: BDRip 720p [Исходник: Shocking.Dark.1989.1080p.Blu-ray.AVC.DTS-HD.MA.2.0]
Контейнер: MKV

Видео: High@L4.1, 1280x720, 23.976 fps, 7300 kbps
Аудио 1: MP3, 48 kHz, 2 ch, 128 kbps (русский) Вячеслав Котов
Аудио 2: AC3, 48 kHz, 2 ch, 256 kbps (английский)
Формат субтитров: prerendered (Blu-ray/PGS/SUP)
GeneralUnique ID : 268342337063576657970335532596581295010 (0xC9E0DAAECD305C90CFB745C89F52E3A2)Complete name : G:nripsShocking.Dark.1989.BDRip.720p.mkvFormat : MatroskaFormat version : Version 4 / Version 2File size : 4.82 GiBDuration : 1 h 29 minOverall bit rate : 7 690 kb/sMovie name : Shocking Dark aka Terminator 2 1989Encoded date : UTC 2018-07-20 21:53:40Writing application : mkvmerge v25.0.0 ('Prog Noir') 64-bitWriting library : libebml v1.3.6 + libmatroska v1.4.9

VideoID : 1Format : AVCFormat/Info : Advanced Video CodecFormat profile : High@L4.1Format settings : CABAC / 9 Ref FramesFormat settings, CABAC : YesFormat settings, ReFrames : 9 framesCodec ID : V_MPEG4/ISO/AVCDuration : 1 h 29 minBit rate : 7 300 kb/sWidth : 1 280 pixelsHeight : 720 pixelsDisplay aspect ratio : 16:9Frame rate mode : ConstantFrame rate : 24.000 FPSColor space : YUVChroma subsampling : 4:2:0Bit depth : 8 bitsScan type : ProgressiveBits/(Pixel*Frame) : 0.330Stream size : 4.57 GiB (95%)Title : Shocking.Dark.1989.BDRip.720p.x264-MMWriting library : x264 core 146 r2538 121396cEncoding settings : cabac=1 / ref=9 / deblock=1:-3:-3 / analyse=0x3:0x113 / me=umh / subme=11 / psy=1 / psy_rd=1.00:0.00 / mixed_ref=1 / me_range=48 / chroma_me=1 / trellis=2 / 8x8dct=1 / cqm=0 / deadzone=21,11 / fast_pskip=0 / chroma_qp_offset=-2 / threads=12 / lookahead_threads=3 / sliced_threads=0 / nr=0 / decimate=0 / interlaced=0 / bluray_compat=0 / constrained_intra=0 / bframes=12 / b_pyramid=2 / b_adapt=2 / b_bias=0 / direct=3 / weightb=1 / open_gop=1 / weightp=2 / keyint=250 / keyint_min=23 / scenecut=40 / intra_refresh=0 / rc_lookahead=60 / rc=2pass / mbtree=0 / bitrate=7300 / ratetol=1.0 / qcomp=0.60 / qpmin=0 / qpmax=69 / qpstep=4 / cplxblur=20.0 / qblur=0.5 / vbv_maxrate=50000 / vbv_bufsize=62500 / nal_hrd=none / filler=0 / ip_ratio=1.40 / pb_ratio=1.30 / aq=1:1.10Language : EnglishDefault : YesForced : No

Audio #1ID : 2Format : MPEG AudioFormat version : Version 1Format profile : Layer 3Format settings : Joint stereo / MS StereoCodec ID : A_MPEG/L3Codec ID/Hint : MP3Duration : 1 h 29 minBit rate mode : ConstantBit rate : 128 kb/sChannel(s) : 2 channelsSampling rate : 48.0 kHzFrame rate : 41.667 FPS (1152 SPF)Compression mode : LossyStream size : 82.1 MiB (2%)Title : AVO КотовLanguage : RussianDefault : YesForced : No

Audio #2ID : 3Format : AC-3Format/Info : Audio Coding 3Codec ID : A_AC3Duration : 1 h 29 minBit rate mode : ConstantBit rate : 256 kb/sChannel(s) : 2 channelsChannel positions : Front: L RSampling rate : 48.0 kHzFrame rate : 31.250 FPS (1536 SPF)Bit depth : 16 bitsCompression mode : LossyStream size : 164 MiB (3%)Title : OriginalLanguage : EnglishService kind : Complete MainDefault : NoForced : No

TextID : 4Format : PGSMuxing mode : zlibCodec ID : S_HDMV/PGSCodec ID/Info : Picture based subtitle format used on BDs/HD-DVDsDuration : 1 h 28 minBit rate : 22.0 kb/sCount of elements : 2390Stream size : 13.9 MiB (0%)Language : EnglishDefault : YesForced : No

Menu00:00:00.000 : en:Chapter 100:02:35.333 : en:Chapter 200:23:45.708 : en:Chapter 300:38:49.750 : en:Chapter 401:09:03.375 : en:Chapter 501:28:13.708 : en:Chapter 6


Трекер:  [ 01-Авг-2018 01:48 ]

  

Скачать .torrent

Размер .torrent файла 96 KB


Размер: 4.82 GB
Хэш (hash) релиза: d6a12589da2744f7edab534e9e7f5982535b827b
Подписка на обновления:

Еще никто не оставлял запись к записи скачать торрент Шокирующая темнота Терминатор 2 . Будь первым!

!Обратная связь