Скачать через торрент Джек Айриш Jack Irish Фильм бесплатно в хорошем качестве torrent

Скачивайте на UnionPeer.org фильмы через торрент без регистрации. Новинки кино в хорошем качестве через торрент. На UnionPeer.org можно скачать через торрент фильмы 2014 и 2015 годов. Самые новые фильмы.

Скачать торрент Джек Айриш Jack Irish бесплатно через .torrent фильм мультфильм сериал

Статистика раздачи
Размер:  713 MB   |    Зарегистрирован:  3 месяца 17 дней   |    .torrent скачан:  53 раза   |   
Раздают:  1  
   
загрузка...
 
Автор Сообщение

Galfimbul

avatar Galfimbul


Jack Irish / Джек Айриш
Год выпуска: 2018
Страна: Австралия
Жанр: Криминал, драма, нуар
Продолжительность:
Перевод: Русские субтитры
Русские субтитры: Авторы: izolenta, Alex_ander, gsau

Режиссёр: Mark Joffe

В ролях: Гай Пирс (Guy Pearce) - Джек Айриш, Марта Дюссельдорп (Marta Dusseldorp)- Линда Хилиер, Аарон Педерсен (Aaron Pedersen) - Кэм Дилрой, Шейн Джейкобсон (Shane Jacobson) - Барри Тригер, Даниэль Кормак ( Danielle Cormack) - Рори Финч, Рой Биллинг (Roy Billing) - Гарри Стрэнж и другие.

Описание:

Доп. информация: Австралийский детективный мини-сериал по новеллам Питера Темпла. В первый сезон входят 2 серии - Bad Debts (Безнадежные долги) и Black Tide (Чёрный прилив), второй сезон состоит из одной серии - Dead Point (Мёртвый мыс)

Ссылка на предыдущие и альтернативные раздачи:

Сэмпл:
Качество: XviD
Формат: AVI
Видео: xvid at 1 609 Kbps 640 x 360 (1.778) at 25.000 fps
Аудио: MPEG Audio at 128 Kbps 2 channels, 48.0 KHz
Формат : AVI
Формат/Информация : Audio Video Interleave
Размер файла : 713 MiB
Продолжительность : 56mn 58s
Общий поток : 1 750 Kbps
Программа кодирования : Lavf57.81.100

Video
Идентификатор : 0
Формат : xvid
Идентификатор кодека : xvid
Продолжительность : 56mn 58s
Битрейт : 1 609 Kbps
Ширина : 640 pixels
Высота : 360 pixels
Соотношение сторон : 16:9
Частота кадров : 25.000 fps
Бит/(Пиксели*Кадры) : 0.279
Размер потока : 656 MiB (92%)

Audio
Идентификатор : 1
Формат : MPEG Audio
Версия формата : Version 1
Профиль формата : Layer 3
Режим : Joint stereo
Расширение режима : MS Stereo
Идентификатор кодека : 55
Идентификатор кодека/Подсказка : MP3
Продолжительность : 56mn 58s
Вид битрейта : Constant
Битрейт : 128 Kbps
Каналы : 2 channels
Частота : 48.0 KHz
Метод сжатия : Lossy
Размер потока : 52.2 MiB (7%)
Выравнивание : Aligned on interleaves
Продолжительность промежутка : 24 ms (0.60 video frame)
Время предзагрузки промежутка : 24 ms
Раздача ведётся путём добавления новых серий; при каждом добавлении создаётся новый торрент. Чтобы начать докачку новой серии, пользователям необходимо сделать следующее:
(1) остановить скачивание,
(2) удалить старый торрент у себя из клиента (старые серии удалять не надо),
(3) скачать новый торрент и запустить его у себя в клиенте вместо старого, при этом указать клиенту путь в старую папку куда и должно происходить скачивание новых серий.

Ваш клиент при этом должен произвести хеширование (проверку) старой папки (если не производит сам - помогите ему сделать это), и будет докачивать только те серии которых у вас ещё нет. Старые серии при этом не удаляются, а продолжают раздаваться!

Eсли вы уже удалили старые серии, то предотвратить повторную закачку старых серий можно, отжав галочку в соответствующих местах при запуске нового торрента. По возможности, желательно не удалять старые серии как можно дольше чтобы релизёр не столько продолжал раздавать старые серии, а смог сконцентрироваться на новых.
Британские детективные сериалы ЗДЕСЬ

Трекер:  [ 30-Июл-2018 18:48 ]

  

Скачать .torrent

Размер .torrent файла 14 KB


Размер: 713 MB
Хэш (hash) релиза: 53f957f15dbcfa7c376083b036d6070563cb5f01
Подписка на обновления:

Еще никто не оставлял запись к записи скачать торрент Джек Айриш Jack Irish . Будь первым!

!Обратная связь