Скачать через торрент Оранжевый - хит сезона Orange Is the New Black Фильм бесплатно в хорошем качестве torrent

Скачивайте на UnionPeer.org фильмы через торрент без регистрации. Новинки кино в хорошем качестве через торрент. На UnionPeer.org можно скачать через торрент фильмы 2014 и 2015 годов. Самые новые фильмы.

Скачать торрент Оранжевый - хит сезона Orange Is the New Black бесплатно через .torrent фильм мультфильм сериал

Статистика раздачи
Размер:  1.12 GB   |    Зарегистрирован:  3 месяца 17 дней   |    .torrent скачан:  53 раза   |   
Раздают:  1  
   
загрузка...
 
Автор Сообщение

Galfimbul

avatar Galfimbul


Оранжевый - хит сезона | Orange Is the New Black
Год выпуска: 2018
Страна: США
Жанр: Драма, комедия, криминал
Продолжительность: ~00:55:00

Перевод: Любительский (многоголосый закадровый) ViruseProject

Режиссёр: Майкл Трим, Эндрю МакКарти, Мэттью Пенн

В ролях: Тейлор Шиллинг, Майкл Харни, Кейт Малгрю, Наташа Лионн, Узо Адуба, Даниэль Брукс, Даша Поланко, Самира Уайли, Селенис Лейва, Ник Сэндоу, Яэль Стоун, Тэрин Мэннинг.

Описание: Новый сезон — новая тюрьма, новые порядки. Ставки выше, схватки жёстче, система ещё неумолимее, сокамерницы ещё резче.
Пока-пока «Личфилд» — привет, совершенно незнакомый мир! Добро пожаловать в тюрьму строгого режима — это ваш новый дом.
История по мотивам книги Пайпер Керман о девушке, которая вынуждена мотать срок в тюрьме из-за своей непутёвой подружки-наркодилерши и никак не может удержаться от того, чтобы поучаствовать в общественной жизни.

Качество: WEBRip
Формат: MKV
Видео: AVC, 1280x720 (16:9), 23.976 fps, 2 400 Kbps, 8 bits
Аудио 1: AC3, 48 kHz, 2 ch, 192 kbps
Аудио 2: AC3, 48 kHz, 6 ch, 384 kbps
Субтитры: русские, английские, испанские, французские, польские, португальские, внутри контента

Реклама: Отсутствует

Внимание! Раздача ведётся путём добавления новых серий; при каждом добавлении создаётся новый торрент. Чтобы начать докачку новой серии, пользователям необходимо сделать следующее:
(1) остановить скачивание,
(2) удалить старый торрент у себя из клиента (старые серии удалять не надо),
(3) скачать новый торрент и запустить его у себя в клиенте вместо старого, при этом указать клиенту путь в старую папку куда и должно происходить скачивание новых серий.

Eсли вы уже удалили старые серии, то предотвратить повторную закачку старых серий можно, отжав галочку в соответствующих местах при запуске нового торрента. По возможности, желательно не удалять старые серии как можно дольше чтобы релизёр не столько продолжал раздавать старые серии, а смог сконцентрироваться на новых.
General
Unique ID : 183903346286104649529746270519372776008 (0x8A5A7F0397439C70821144D8BED38248)
Complete name : E:\ОЗВУЧКА\777ЗАЛИВ777\Orange.Is.The.New.Black.S06.ViruseProject\Orange.Is.The.New.Black.S06.720p.ViruseProject\Orange.Is.The.New.Black.S06E01.720p.WEBRip.ViruseProject.mkv
Format : Matroska
Format version : Version 4 / Version 2
File size : 1.12 GiB
Duration : 54 min 50 s
Overall bit rate mode : Variable
Overall bit rate : 2 911 kb/s
Encoded date : UTC 2018-07-29 09:05:54
Writing application : mkvmerge v8.3.0 ('Over the Horizon') 64bit
Writing library : libebml v1.3.1 + libmatroska v1.4.2

Video
ID : 1
Format : AVC
Format/Info : Advanced Video Codec
Format profile : Main@L3.1
Format settings, CABAC : Yes
Format settings, ReFrames : 3 frames
Codec ID : V_MPEG4/ISO/AVC
Duration : 54 min 49 s
Bit rate mode : Variable
Bit rate : 2 370 kb/s
Maximum bit rate : 3 555 kb/s
Width : 1 280 pixels
Height : 720 pixels
Display aspect ratio : 16:9
Frame rate mode : Constant
Frame rate : 23.976 (24000/1001) FPS
Color space : YUV
Chroma subsampling : 4:2:0
Bit depth : 8 bits
Scan type : Progressive
Bits/(Pixel*Frame) : 0.107
Stream size : 915 MiB (80%)
Writing library : x264 core 148 r2714 2daf636
Encoding settings : cabac=1 / ref=3 / deblock=1:0:0 / analyse=0x1:0x111 / me=umh / subme=10 / psy=1 / psy_rd=1.00:0.00 / mixed_ref=1 / me_range=24 / chroma_me=1 / trellis=2 / 8x8dct=0 / cqm=0 / deadzone=21,11 / fast_pskip=1 / chroma_qp_offset=-2 / threads=8 / lookahead_threads=1 / sliced_threads=0 / nr=0 / decimate=1 / interlaced=0 / bluray_compat=0 / stitchable=1 / constrained_intra=0 / bframes=2 / b_pyramid=0 / b_adapt=2 / b_bias=0 / direct=3 / weightb=1 / open_gop=0 / weightp=2 / keyint=48 / keyint_min=25 / scenecut=0 / intra_refresh=0 / rc_lookahead=48 / rc=2pass / mbtree=1 / bitrate=2370 / ratetol=1.0 / qcomp=0.50 / qpmin=6 / qpmax=51 / qpstep=4 / cplxblur=20.0 / qblur=0.5 / vbv_maxrate=3555 / vbv_bufsize=4740 / nal_hrd=vbr / filler=0 / ip_ratio=1.40 / aq=1:1.00
Default : Yes
Forced : No

Audio #1
ID : 2
Format : AC-3
Format/Info : Audio Coding 3
Format settings, Endianness : Big
Codec ID : A_AC3
Duration : 54 min 50 s
Bit rate mode : Constant
Bit rate : 192 kb/s
Channel(s) : 2 channels
Channel positions : Front: L R
Sampling rate : 48.0 kHz
Frame rate : 31.250 FPS (1536 spf)
Bit depth : 16 bits
Compression mode : Lossy
Stream size : 75.3 MiB (7%)
Title : ViruseProject
Language : Russian
Service kind : Complete Main
Default : Yes
Forced : No

Audio #2
ID : 3
Format : AC-3
Format/Info : Audio Coding 3
Format settings, Endianness : Big
Codec ID : A_AC3
Duration : 54 min 49 s
Bit rate mode : Constant
Bit rate : 384 kb/s
Channel(s) : 6 channels
Channel positions : Front: L C R, Side: L R, LFE
Sampling rate : 48.0 kHz
Frame rate : 31.250 FPS (1536 spf)
Bit depth : 16 bits
Compression mode : Lossy
Stream size : 151 MiB (13%)
Language : English
Service kind : Complete Main
Default : No
Forced : No

Text #1
ID : 4
Format : UTF-8
Codec ID : S_TEXT/UTF8
Codec ID/Info : UTF-8 Plain Text
Duration : 52 min 43 s
Bit rate : 138 b/s
Count of elements : 827
Stream size : 53.4 KiB (0%)
Title : ViruseProject
Language : Russian
Default : No
Forced : No

Text #2
ID : 5
Format : UTF-8
Codec ID : S_TEXT/UTF8
Codec ID/Info : UTF-8 Plain Text
Duration : 52 min 36 s
Bit rate : 82 b/s
Count of elements : 915
Stream size : 31.7 KiB (0%)
Language : English
Default : No
Forced : No

Text #3
ID : 6
Format : UTF-8
Codec ID : S_TEXT/UTF8
Codec ID/Info : UTF-8 Plain Text
Duration : 53 min 46 s
Bit rate : 63 b/s
Count of elements : 795
Stream size : 25.1 KiB (0%)
Title : European
Language : Spanish
Default : No
Forced : No

Text #4
ID : 7
Format : UTF-8
Codec ID : S_TEXT/UTF8
Codec ID/Info : UTF-8 Plain Text
Duration : 53 min 37 s
Bit rate : 66 b/s
Count of elements : 792
Stream size : 26.1 KiB (0%)
Language : French
Default : No
Forced : No

Text #5
ID : 8
Format : UTF-8
Codec ID : S_TEXT/UTF8
Codec ID/Info : UTF-8 Plain Text
Duration : 53 min 37 s
Bit rate : 62 b/s
Count of elements : 793
Stream size : 24.6 KiB (0%)
Language : Polish
Default : No
Forced : No

Text #6
ID : 9
Format : UTF-8
Codec ID : S_TEXT/UTF8
Codec ID/Info : UTF-8 Plain Text
Duration : 53 min 37 s
Bit rate : 68 b/s
Count of elements : 802
Stream size : 26.8 KiB (0%)
Language : Portuguese
Default : No
Forced : No
[b]Предыдущие и альтернативные раздачи

Трекер:  [ 30-Июл-2018 08:48 ]

  

Скачать .torrent

Размер .torrent файла 11 KB


Размер: 1.12 GB
Хэш (hash) релиза: 1ababe6d0d5513a07dc480969d4b520398dc9bef
Подписка на обновления:

Торренты, похожие на Оранжевый - хит сезона Orange Is the New Black скачать торрент

Форум Название Автор Размер S L Добавлен
Зарубежные сериалы ·%· Оранжевый - хит сезона /Orange Is the New Black / Сезон: 6 / Серии: 1-10 из 13 (Майкл Трим, Эндрю МакКарти, Мэттью Пенн) [2018, США, драма, комедия, криминал, WEBRip] DVO (Gears Media) + Original Galfimbul 75296290307.01 GB 0 0 1533192488

09:48

2-Авг-18

Зарубежные сериалы ·%· Оранжевый - хит сезона /Orange Is the New Black / Сезон: 6 / Серии: 1-10 из 13 (Майкл Трим, Эндрю МакКарти, Мэттью Пенн) [2018, США, драма, комедия, криминал, WEBRip 720p] DVO (Gears Media) + Original Galfimbul 3382050758731.5 GB 0 0 1533187101

08:18

2-Авг-18

Зарубежные сериалы ·%· Оранжевый - хит сезона / Orange Is the New Black / Сезон: 6 / Серии: 1 из 13 (Майкл Трим, Эндрю МакКарти, Мэттью Пенн) [2018, США, драма, комедия, криминал, WEBRip] MVO (ViruseProject) Galfimbul 742965248709 MB 0 0 1532927891

08:18

30-Июл-18

Зарубежные сериалы ·· Оранжевый - хит сезона / Orange Is the New Black / Сезон: 5 / Серии: 1-6 из 13 (Майкл Трим, Эндрю МакКарти, Мэттью Пенн) [2017, драма, комедия, криминал, WEBRip 1080p] MVO (Jaskier) + Original Galfimbul 4455496734641.5 GB 0 0 1499117072

00:24

4-Июл-17

Зарубежные сериалы ·· Оранжевый - хит сезона / Orange Is the New Black / Сезон: 5 / Серии: 1-6 из 13 (Майкл Трим, Эндрю МакКарти, Мэттью Пенн) [2017, драма, комедия, криминал, WEBRip] MVO (Jaskier) + Original Galfimbul 41994874883.91 GB 0 0 1499116904

00:21

4-Июл-17

Зарубежные сериалы ·· Оранжевый - хит сезона /Orange Is the New Black / Сезон: 5 / Серии: 1-6 из 13 (Майкл Трим, Эндрю МакКарти, Мэттью Пенн) [2017, США, драма, комедия, криминал, WEB-DLRip] DVO (Gears Media) + Original Galfimbul 43863874284.09 GB 0 0 1497392687

01:24

14-Июн-17

Зарубежные сериалы ·· Оранжевый - хит сезона /Orange Is the New Black / Сезон: 5 / Серии: 1-6 из 13 (Майкл Трим, Эндрю МакКарти, Мэттью Пенн) [2017, США, драма, комедия, криминал, WEBRip 720p] DVO (Gears Media) + Original Galfimbul 1121095242610.44 GB 0 0 1497383683

22:54

13-Июн-17

Еще никто не оставлял запись к записи скачать торрент Оранжевый - хит сезона Orange Is the New Black . Будь первым!

!Обратная связь