Скачать через торрент Блеск GLOW Фильм бесплатно в хорошем качестве torrent

Скачивайте на UnionPeer.org фильмы через торрент без регистрации. Новинки кино в хорошем качестве через торрент. На UnionPeer.org можно скачать через торрент фильмы 2014 и 2015 годов. Самые новые фильмы.

Скачать торрент Блеск GLOW бесплатно через .torrent фильм мультфильм сериал

Статистика раздачи
Размер:  7.38 GB   |    Зарегистрирован:  3 месяца 17 дней   |    .torrent скачан:  39 раз   |   
Раздают:  1  
   
загрузка...
 
Автор Сообщение

Galfimbul

avatar Galfimbul


Блеск - Второй сезон
GLOW - The Second Season
Год выпуска: 2018
Страна: США
Производство: Netflix
Жанр: драма, комедия, спорт
Продолжительность: 00:30:00
Перевод: Профессиональный (многоголосый закадровый) AMS
Авторы идеи: Лиз Флэхайв, Карли Менш / Liz Flahive, Carly Mensch
В ролях: Элисон Бри, Марк Мэрон, Бетти Гилпин, Сидель Ноэль, Бритни Янг, Джеки Тоун, Кейт Нэш, Бритт Бэрон, Крис Лоуэлл, Башир Салауддин, Рич Соммер, Кимми Гейтвуд, Ребекка Джонсон, Сунита Мани, Киа Стивенс, Гейл Рэнкин, Эллен Вонг, Марьяна Палка, Алекс Рич, Элизабет Перкинс и др.
Описание: История безработной актрисы из Лос-Анджелеса по имени Рут, которая в отчаянной попытке самореализации решает сняться в сериале о женщинах-рестлерах и оказывается в мире пышных причёсок, блеска и спандекса.
Все раздачи | КиноПоиск | IMDb | Sample
<div class="post-box-default">
<div class="post-box">Рекламы нет</div>
</div>
Качество: WEBRip-AVC (Источник: GLOW.S02.2160p.NF.WEBRip.DD5.1.x264-NTb)
Формат: MKV
Видео: x264, 960x480 (2.000), 23.976 fps, ~2150 kbps avg, 0.195 bit/pixel
Аудио #1: Russian 48.0 KHz, AC3, 3/2 (L,C,R,l,r) + LFE ch, ~384.00 kbps avg |AMS|
Аудио #2: English 48.0 KHz, AC3, 3/2 (L,C,R,l,r) + LFE ch, ~384.00 kbps avg |Original|
Субтитры: русские (PhysKids), английские (SDH)
Рип и работа со звуком - whip93.
General
Unique ID : 281863408992141517405264117433683861982 (0xD40CEAFF75A430739D7DC7BB2D0AE1DE)
Complete name : D:\Фильмы\GLOW - The Complete 2nd Season - whip93\GLOW.S02E01.Viking.Funeral.WEBRip.DD5.1.x264.-whip93.mkv
Format : Matroska
Format version : Version 4 / Version 2
File size : 700 MiB
Duration : 33 min 30 s
Overall bit rate : 2 920 kb/s
Movie name : Блеск | GLOW (S02E01) - Release by whip93
Encoded date : UTC 2018-07-29 13:22:24
Writing application : mkvmerge v22.0.0 ('At The End Of The World') 64-bit
Writing library : libebml v1.3.5 + libmatroska v1.4.8

Video
ID : 1
Format : AVC
Format/Info : Advanced Video Codec
Format profile : High@L4.1
Format settings : CABAC / 16 Ref Frames
Format settings, CABAC : Yes
Format settings, ReFrames : 16 frames
Codec ID : V_MPEG4/ISO/AVC
Duration : 33 min 29 s
Bit rate : 2 150 kb/s
Width : 960 pixels
Height : 480 pixels
Display aspect ratio : 2.000
Frame rate mode : Constant
Frame rate : 23.976 (24000/1001) FPS
Color space : YUV
Chroma subsampling : 4:2:0
Bit depth : 8 bits
Scan type : Progressive
Bits/(Pixel*Frame) : 0.195
Stream size : 515 MiB (74%)
Title : Encoded by whip93
Writing library : x264 core 155 r2867+82 a249126 t_mod_Custom_2 [8-bit@all X86_64]
Encoding settings : cabac=1 / ref=16 / deblock=1:-3:-3 / analyse=0x3:0x133 / me=umh / subme=10 / psy=1 / fade_compensate=0.00 / psy_rd=1.00:0.08 / mixed_ref=0 / me_range=32 / chroma_me=1 / trellis=2 / 8x8dct=1 / cqm=0 / deadzone=21,11 / fast_pskip=1 / chroma_qp_offset=-3 / threads=12 / lookahead_threads=3 / sliced_threads=0 / nr=0 / decimate=1 / interlaced=0 / bluray_compat=0 / constrained_intra=0 / fgo=0 / bframes=11 / b_pyramid=2 / b_adapt=2 / b_bias=0 / direct=1 / weightb=1 / open_gop=0 / weightp=2 / keyint=250 / keyint_min=23 / scenecut=40 / intra_refresh=0 / rc_lookahead=90 / rc=crf / mbtree=0 / crf=20.0000 / qcomp=0.72 / qpmin=0:0:0 / qpmax=69:69:69 / qpstep=4 / vbv_maxrate=62500 / vbv_bufsize=78125 / crf_max=0.0 / nal_hrd=none / filler=0 / ip_ratio=1.40 / pb_ratio=1.30 / aq=3:0.80 / aq-sensitivity=10.00 / aq-factor=1.00:1.00:1.00 / aq2=0 / aq3=0
Language : English
Default : Yes
Forced : No
Color range : Limited
Color primaries : BT.709
Transfer characteristics : BT.709
Matrix coefficients : BT.709

Audio #1
ID : 2
Format : AC-3
Format/Info : Audio Coding 3
Codec ID : A_AC3
Duration : 33 min 30 s
Bit rate mode : Constant
Bit rate : 384 kb/s
Channel(s) : 6 channels
Channel positions : Front: L C R, Side: L R, LFE
Sampling rate : 48.0 kHz
Frame rate : 31.250 FPS (1536 SPF)
Bit depth : 16 bits
Compression mode : Lossy
Stream size : 92.0 MiB (13%)
Language : Russian
Service kind : Complete Main
Default : Yes
Forced : No

Audio #2
ID : 3
Format : AC-3
Format/Info : Audio Coding 3
Codec ID : A_AC3
Duration : 33 min 30 s
Bit rate mode : Constant
Bit rate : 384 kb/s
Channel(s) : 6 channels
Channel positions : Front: L C R, Side: L R, LFE
Sampling rate : 48.0 kHz
Frame rate : 31.250 FPS (1536 SPF)
Bit depth : 16 bits
Compression mode : Lossy
Stream size : 92.0 MiB (13%)
Language : English
Service kind : Complete Main
Default : No
Forced : No

Text #1
ID : 4
Format : UTF-8
Codec ID : S_TEXT/UTF8
Codec ID/Info : UTF-8 Plain Text
Duration : 31 min 48 s
Bit rate : 117 b/s
Count of elements : 542
Stream size : 27.4 KiB (0%)
Language : Russian
Default : No
Forced : No

Text #2
ID : 5
Format : UTF-8
Codec ID : S_TEXT/UTF8
Codec ID/Info : UTF-8 Plain Text
Duration : 33 min 9 s
Bit rate : 83 b/s
Count of elements : 624
Stream size : 20.4 KiB (0%)
Language : English
Default : No
Forced : No



Трекер:  [ 30-Июл-2018 08:18 ]

  

Скачать .torrent

Размер .torrent файла 39 KB


Размер: 7.38 GB
Хэш (hash) релиза: 252bb09c6e442be1a4d054b0aa4bf788493167fe
Подписка на обновления:

Торренты, похожие на Блеск GLOW скачать торрент

Форум Название Автор Размер S L Добавлен
Зарубежные сериалы ·%· Блеск / GLOW / Сезон: 2 / Серии: 1-10 из 10 (Дэвид Стрейтон, Мира Менон, Лин Оэдин) [2018, США, Драма, комедия, спорт, WEBRip 1080p] MVO (AMS) + Original Galfimbul 3542758952132.99 GB 0 0 1531529291

03:48

14-Июл-18

Зарубежные сериалы ·%· Блеск / GLOW / Сезон: 2 / Серии: 1-10 из 10 (Кейт Дэннис, Тодд Фьельстед, Тристрам Шапиро) [2018, США, Драма, комедия, спорт, WEBRip 720p] MVO (Jaskier) + Original + Sub Eng Galfimbul 2244142838920.9 GB 0 0 1531196305

07:18

10-Июл-18

Зарубежные сериалы ·%· Блеск / GLOW / Сезон: 2 / Серии: 1-10 из 10 (Кейт Дэннис, Тодд Фьельстед, Тристрам Шапиро) [2018, США, Драма, комедия, спорт, WEBRip] MVO (Jaskier) + Original Galfimbul 44079472644.11 GB 0 0 1531196293

07:18

10-Июл-18

Зарубежные сериалы ·%· Блеск / GLOW / Сезон: 2 / Серии: 1-5 из 10 (Кейт Дэннис, Тодд Фьельстед, Тристрам Шапиро) [2018, США, Драма, комедия, спорт, WEBRip 720p] DVO (Gears Media) + Original Galfimbul 46710718164.35 GB 0 0 1530562709

23:18

2-Июл-18

Зарубежные сериалы ·%· Блеск / GLOW / Сезон: 2 / Серии: 1-5 из 10 (Кейт Дэннис, Тодд Фьельстед, Тристрам Шапиро) [2018, США, Драма, комедия, спорт, WEBRip] DVO (Gears Media) + Original Galfimbul 19501914001.82 GB 0 0 1530562687

23:18

2-Июл-18

Зарубежные сериалы ·· Блеск / GLOW / Сезон: 1 / Серии: 1-2 из 10 (Кейт Дэннис, Тодд Фьельстед, Тристрам Шапиро) [2017, США, Драма, комедия, спорт, WEBRip 720p] MVO (Jaskier) + Original Galfimbul 41080408403.83 GB 0 0 1498821892

14:24

30-Июн-17

Зарубежные сериалы ·· Блеск / GLOW / Сезон: 1 / Серии: 1-2 из 10 (Кейт Дэннис, Тодд Фьельстед, Тристрам Шапиро) [2017, США, Драма, комедия, спорт, WEBRip] MVO (Jaskier) + Original Galfimbul 892360704851 MB 0 0 1498821765

14:22

30-Июн-17

Еще никто не оставлял запись к записи скачать торрент Блеск GLOW . Будь первым!

!Обратная связь