Скачать через торрент [RM] Фильм бесплатно в хорошем качестве torrent

Скачивайте на UnionPeer.org фильмы через торрент без регистрации. Новинки кино в хорошем качестве через торрент. На UnionPeer.org можно скачать через торрент фильмы 2014 и 2015 годов. Самые новые фильмы.

Скачать торрент [RM] бесплатно через .torrent фильм мультфильм сериал

Статистика раздачи
Размер:  950 MB   |    Зарегистрирован:  3 месяца 18 дней   |    .torrent скачан:  48 раз   |   
Раздают:  1  
   
загрузка...
 
Автор Сообщение

Galfimbul

avatar Galfimbul




Жанр: Heartland Rock, Country Rock
Год выпуска: 2006-2017
Аудио кодек: FLAC
Тип рипа: tracks+.cue
Формат раздачи: 16/44
Продолжительность: 02:27:54
Наличие сканов в содержимом раздачи: нет

Исходник для обработки: Face The Promise; Ride Out; I Knew You When

Обработка: Устранение клиппинга, восстановление динамического диапазона.
Studio albums
01. Wreck This Heart (3:54)
02. Wait for Me (3:43)
03. Face the Promise (3:19)
04. No Matter Who You Are (3:40)
05. Are You (3:35)
06. Simplicity (4:00)
07. No More (2:58)
08. Real Mean Bottle [feat. Kid Rock] (3:05)
09. Won’t Stop (3:19)
10. Between (4:49)
11. The Answer’s in the Question [feat. Patty Loveless] (3:42)
12. The Long Goodbye (3:07)
Исходное издание: Capitol Records ‎– CDP 0946 3 73686 2 6
Обработка: Проведен деклиппинг материала.



<div class="sp-wrap">
<div class="sp-head folded">Спектр, АЧХ, Уровень записи, Динамический диапазон</div>
<div class="sp-body">
foobar2000 1.3.9 / Замер динамического диапазона (DR) 1.1.1
Дата отчёта: 2018-07-27 18:22:02

--------------------------------------------------------------------------------
Анализ:   Bob Seger / Face the Promise
--------------------------------------------------------------------------------

DR         Пики          RMS        Продолжительность трека
--------------------------------------------------------------------------------
DR11      -1.53 дБ   -14.36 дБ      3:54 1-Wreck This Heart
DR11      -2.58 дБ   -16.18 дБ      3:43 2-Wait for Me
DR12      -1.45 дБ   -15.27 дБ      3:19 3-Face the Promise
DR12      -1.32 дБ   -14.74 дБ      3:40 4-No Matter Who You Are
DR12      -2.00 дБ   -15.38 дБ      3:35 5-Are You
DR12      -1.26 дБ   -15.34 дБ      4:00 6-Simplicity
DR11      -2.02 дБ   -14.81 дБ      2:58 7-No More
DR10      -1.21 дБ   -13.18 дБ      3:05 8-Real Mean Bottle [feat. Kid Rock]
DR12      -1.52 дБ   -15.84 дБ      3:19 9-Won’t Stop
DR13      -0.50 дБ   -15.25 дБ      4:49 10-Between
DR11      -1.65 дБ   -16.49 дБ      3:42 11-The Answer’s in the Question [feat. Patty Loveless]
DR12      -2.64 дБ   -18.39 дБ      3:07 12-The Long Goodbye
--------------------------------------------------------------------------------

Количество треков: 12
Реальные значения DR: DR12

Частота:  44100 Гц
Каналов:  2
Разрядность:   16
Битрейт:  896 кбит/с
Кодек:   FLAC
</div>
</div>
01. Detroit Made [John Hiatt cover] (3:48)
02. Hey Gypsy (2:32)
03. The Devil's Right Hand [Steve Earle cover] (3:49)
04. Ride Out (3:08)
05. Adam and Eve [Kasey Chambers and Shane Nicholson cover] (3:15)
06. California Stars [Billy Bragg & Wilco cover] (4:45)
07. It's Your World (3:19)
08. All of the Roads (3:36)
09. You Take Me In (2:36)
10. Gates of Eden (3:48)
11. Listen [feat. Vince Gill] [bonus track] (3:21)
12. The Fireman's Talkin' [bonus track] (2:47)
13. Let the Rivers Run [bonus track] (3:53)
14. It All Goes On [bonus track] (3:41)
15. Passing Through [bonus track] (4:48)
Исходное издание: Capitol Records ‎– B002211102
Обработка: Проведен деклиппинг материала.



<div class="sp-wrap">
<div class="sp-head folded">Спектр, АЧХ, Уровень записи, Динамический диапазон</div>
<div class="sp-body">
foobar2000 1.3.9 / Замер динамического диапазона (DR) 1.1.1
Дата отчёта: 2018-07-27 18:24:49

--------------------------------------------------------------------------------
Анализ:   Bob Seger / Ride Out
--------------------------------------------------------------------------------

DR         Пики          RMS        Продолжительность трека
--------------------------------------------------------------------------------
DR11      -1.85 дБ   -14.37 дБ      3:48 1-Detroit Made [John Hiatt cover]
DR12      -1.26 дБ   -14.12 дБ      2:32 2-Hey Gypsy
DR13      -0.50 дБ   -14.78 дБ      3:49 3-The Devil's Right Hand [Steve Earle cover]
DR12      -2.07 дБ   -15.14 дБ      3:08 4-Ride Out
DR13      -1.10 дБ   -15.84 дБ      3:15 5-Adam and Eve [Kasey Chambers and Shane Nicholson cover]
DR11      -2.72 дБ   -15.75 дБ      4:45 6-California Stars [Billy Bragg & Wilco cover]
DR12      -1.98 дБ   -16.16 дБ      3:19 7-It's Your World
DR11      -2.83 дБ   -14.98 дБ      3:36 8-All of the Roads
DR12      -3.66 дБ   -17.53 дБ      2:36 9-You Take Me In
DR11      -2.22 дБ   -15.39 дБ      3:48 10-Gates of Eden
DR11      -3.17 дБ   -16.77 дБ      3:21 11-Listen [feat. Vince Gill] [bonus track]
DR12      -0.75 дБ   -14.77 дБ      2:47 12-The Fireman's Talkin' [bonus track]
DR11      -3.42 дБ   -16.89 дБ      3:53 13-Let the Rivers Run [bonus track]
DR11      -2.64 дБ   -15.36 дБ      3:41 14-It All Goes On [bonus track]
DR11      -2.52 дБ   -15.10 дБ      4:48 15-Passing Through [bonus track]
--------------------------------------------------------------------------------

Количество треков: 15
Реальные значения DR: DR12

Частота:  44100 Гц
Каналов:  2
Разрядность:   16
Битрейт:  872 кбит/с
Кодек:   FLAC
</div>
</div>
01. Gracile (2:48)
02. Busload of Faith [Lou Reed cover] (4:32)
03. The Highway (3:38)
04. I Knew You When (3:53)
05. I'll Remember You (3:48)
06. The Sea Inside (4:14)
07. Marie (3:26)
08. Runaway Train (4:10)
09. Something More (3:47)
10. Democracy [Leonard Cohen cover] (6:32)
11. Forward Into the Past [bonus track] (4:12)
12. Blue Ridge [bonus track] (3:50)
13. Glenn Song [bonus track] (2:49)
Исходное издание: Capitol Records ‎– B002759902
Обработка: Проведены деклиппинг и декомпрессия материала.



<div class="sp-wrap">
<div class="sp-head folded">Спектр, АЧХ, Уровень записи, Динамический диапазон</div>
<div class="sp-body">
foobar2000 1.3.9 / Замер динамического диапазона (DR) 1.1.1
Дата отчёта: 2018-07-27 18:38:58

--------------------------------------------------------------------------------
Анализ:   Bob Seger / I Knew You When
--------------------------------------------------------------------------------

DR         Пики          RMS        Продолжительность трека
--------------------------------------------------------------------------------
DR11      -2.14 дБ   -14.55 дБ      2:48 1-Gracile
DR11      -1.94 дБ   -14.67 дБ      4:32 2-Busload of Faith [Lou Reed cover]
DR10      -1.33 дБ   -13.30 дБ      3:38 3-The Highway
DR11      -0.79 дБ   -13.95 дБ      3:53 4-I Knew You When
DR9       -1.08 дБ   -13.84 дБ      3:48 5-I'll Remember You
DR11      -1.15 дБ   -13.44 дБ      4:14 6-The Sea Inside
DR11      -0.88 дБ   -14.46 дБ      3:26 7-Marie
DR10      -1.06 дБ   -13.18 дБ      4:10 8-Runaway Train
DR11      -1.57 дБ   -14.86 дБ      3:47 9-Something More
DR10      -1.69 дБ   -14.63 дБ      6:32 10-Democracy [Leonard Cohen cover]
DR11      -1.77 дБ   -13.83 дБ      4:12 11-Forward Into the Past [bonus track]
DR9       -1.79 дБ   -12.80 дБ      3:50 12-Blue Ridge [bonus track]
DR12      -2.01 дБ   -16.05 дБ      2:49 13-Glenn Song [bonus track]
--------------------------------------------------------------------------------

Количество треков: 13
Реальные значения DR: DR11

Частота:  44100 Гц
Каналов:  2
Разрядность:   16
Битрейт:  912 кбит/с
Кодек:   FLAC
</div>
</div>
Обработка: Adobe Audition с плагинами Stereo Tool, Fabfilter Pro-L 2, TDR Limiter 6 GE, Fabfilter Pro-MB

Мониторинг результата:
Стационарная аппаратура: NAD D 1050 + Beyerdynamic DT 990 Pro и Rotel RA-10 + Jamo C603
Мобильная аппаратура: Meizu MX2 + Sennheiser CX 980

Примечание: Деклиппинг и восстановление динамического диапазона - не панацея от некачественной записи. Целью реставрации является меньшая усталость при прослушивании, и звучание, приближенное к тому, которое задумывалось звукорежиссером, до вмешательства маркетологов.

Материалы по теме "Война громкости": 1, 2, 3, 4
Другие раздачи в рамках проекта можно найти

29.07.2018: Раздача переделана. Добавлен альбом "I Knew You When".

Трекер:  [ 29-Июл-2018 20:18 ]

  

Скачать .torrent

Размер .torrent файла 23 KB


Размер: 950 MB
Хэш (hash) релиза: 30c87dc02cc0893d1210bd7d6000ffa0bc33b197
Подписка на обновления:

Торренты, похожие на [RM] скачать торрент

Форум Название Автор Размер S L Добавлен
Зарубежные фильмы до 2016 ·· Я видел Солнце / Günesi gördüm / Gunesi gordum (Махсун Кырмызыгюль / Mahsun Kırmızıgül / Mahsun Kırmızıgul) [2009, Турция, драма, DVD9 (Custom)] MVO ("Эй-Би-Си Дистрибьюшн") + Sub Eng Galfimbul 76572938247.13 GB 0 0 1487706892

22:54

21-Фев-17

Зарубежные сериалы ·%· [RM] [restored] [declipped] [16/44] (Progressive Metal, Neoclassical Metal) Symphony X - Paradise Lost - 2007, FLAC (tracks+.cue) Galfimbul 443766236423 MB 0 0 1532639894

00:18

27-Июл-18

Зарубежные сериалы ·%· [RM] [restored] [declipped] [16/44] (Alternative Metal, Experimental Rock) Scars on Broadway (Daron Malakian, System of a Down) - Дискография - 2008-2018, FLAC (tracks+.cue) Galfimbul 644245521614 MB 0 0 1532461695

22:48

24-Июл-18

Зарубежные сериалы ·%· (Black metal) [16/44] [RM] [restored] [declipped] Immortal - At The Heart Of Winter & Northern Chaos Gods (1999, 2018), FLAC (image + .cue) Galfimbul 629113388600 MB 0 0 1531910893

13:48

18-Июл-18

Зарубежные сериалы ·%· [RM] [restored] [declipped] [16/44] (Crossover Progressive) Lunatic Soul (Mariusz Duda, Riverside) - Дискография - 2008-2018, FLAC (tracks+.cue) Galfimbul 16573805261.54 GB 0 0 1530881310

15:48

6-Июл-18

Зарубежные сериалы ·%· [RM] [restored] [declipped] [16/44] (Heavy Metal) Judas Priest - 1986-2018, FLAC (tracks+.cue) Galfimbul 39393753213.67 GB 0 0 1530872300

13:18

6-Июл-18

Зарубежные сериалы ·%· (Electronic, Trip Hop) [16/44] [RM] [restored] [declipped] Morcheeba - Дискография - 1996-2018, FLAC (tracks+.cue) Galfimbul 31717831412.95 GB 0 0 1530562701

23:18

2-Июл-18

Зарубежные сериалы ·%· (Heavy Metal) [Restored][RM][24/192]Refuge - Solitary Men - 2018, FLAC (tracks), lossless Galfimbul 23335702202.17 GB 0 0 1529513291

19:48

20-Июн-18

Зарубежные сериалы ·%· (Folk rock, Neo-medieval) [16/44] [RM] [restored] [declipped] Blackmore's Night - Дискография - 1997-2017, FLAC (tracks+.cue) Galfimbul 48747397174.54 GB 0 0 1529441302

23:48

19-Июн-18

Зарубежные сериалы ·· (Classic Rock, Soft Rock) [16/44] [RM] [restored] [declipped] Francis Rossi (Status Quo) - Дискография - 1996-2011, FLAC (tracks+.cue) Galfimbul 1030111159982 MB 0 0 1529063292

14:48

15-Июн-18

Зарубежные сериалы ·· (Heavy Metal, Stoner Metal) [16/44] [RM] [restored] [declipped] Mustasch - Дискография - 2001-2018, FLAC (tracks+.cue) Galfimbul 32434915353.02 GB 0 0 1529009296

23:48

14-Июн-18

Зарубежные сериалы ·%· (Hard Rock) [Retored][RM][24/192] Sunstorm - The Road To Hell - 2018, FLAC (tracks) Galfimbul 18833160051.75 GB 0 0 1529002103

21:48

14-Июн-18

Зарубежные сериалы ·%· [restored] [RM] (Jazz, Swing) [LP] Frank Sinatra - Sinatra's Swingin' Session!!! - 1983, FLAC (tracks), lossless Galfimbul 176185880168 MB 0 0 1528985895

17:18

14-Июн-18

Зарубежные сериалы ·· [restored] [RM] (Rock) [LP] Alice Cooper - Paranormal - 2017, FLAC (tracks), lossless Galfimbul 288531613275 MB 0 0 1528712293

13:18

11-Июн-18

Зарубежные сериалы ·· [restored] [RM] (Pop Rock) [LP] Cat Stevens - Tea For The Tillerman - 2015, FLAC (tracks), lossless Galfimbul 211625618202 MB 0 0 1528624093

12:48

10-Июн-18

Зарубежные сериалы ·· [restored] [RM] (Jazz, Hard Bop) [LP] Miles Davis - Porgy And Bess - 1972, FLAC (tracks), lossless Galfimbul 431404245411 MB 0 0 1528544896

14:48

9-Июн-18

Зарубежные сериалы ·· (Classic Rock, Hard Rock) [16/44] [RM] [restored] [declipped] Rick Parfitt (Status Quo) - Over and Out - 2018, FLAC (tracks+.cue) Galfimbul 257836355246 MB 0 0 1527097691

20:48

23-Май-18

Зарубежные сериалы ·· [restored] (Rock) [Declipped; RM] Fruupp - Modern Masquerades - 1975 (2018) [Flac 24/48 Tracks] Galfimbul 558591422533 MB 0 0 1526113093

11:18

12-Май-18

Зарубежные сериалы ·· (Instrumental Rock) [RM][restored][24/192] Joe Satriani - What Happens Next - 2018, FLAC (tracks), lossless Galfimbul 20587145691.92 GB 0 0 1525513697

12:48

5-Май-18

Еще никто не оставлял запись к записи скачать торрент [RM] . Будь первым!

!Обратная связь